X   Site Message
(Message will auto close in 2 seconds)

Welcome Guest ( Log In | Register )

> Luca Turilli's Rhapsody - Prometheus, Symphonia Ignis Divinus (2015), Symphonic Power Metal (D4)
post Jun 18 2015, 12:48:24
Post #1

Serial Uploader
Group Icon
Group: V.I.P
Posts: 33,922
Releases: 32160
From: Lithuania
On Forums: 10 years 8 months
Thanks: 366881 time(s)
Lithuania




*Artist: Luca Turilli's Rhapsody
*Album: Prometheus, Symphonia Ignis Divinus
*Year: 2015
*Genre: Symphonic Power Metal
*Country: Italy
*Format: mp3@CBR320kbps
*Size: 171MB

Tracklist:
01. Nova Genesis (Ad Splendorem Angeli Triumphantis) 03:08
02. Il Cigno Nero 04:08
03. Rosenkreuz (The Rose And The Cross) 04:34
04. Anahata 05:03
05. Il Tempo Degli Dei 05:03
06. One Ring To Rule Them All 07:05
07. Notturno 04:34
08. Prometheus 05:06
09. King Solomon And The 72 Names Of God 06:51
10. Yggdrasil 06:00
11. Of Michael The Archangel And Lucifer's Fall Part II: Codex Nemesis 18:04
12. Thundersteel (Cinematic Version) (Bonus Track) 04:32
******************************
Total playing time: 1:14:08




Extended info
Limited Edition


Technical info

Input File: 02. Il Cigno Nero.mp3
Channels : 2
Sample Rate : 44100
Precision : 16-bit
Duration : 00:04:08.97 = 10979709 samples = 18673 CDDA sectors
File Size : 10.0M
Bit Rate : 322k
Sample Encoding: MPEG audio (layer I, II or III)
Comments :
Title=Il Cigno Nero
Artist=Luca Turilli'S Rhapsody
Album=Prometheus-Symphonia Ignis Divinus (Ltd.Digipak)
Tracknumber=2/12
Year=2015



Register


Go to the top of the page
  Insert nick Quick quote
+Quote Post
2 Pages V  < 1 2  
Start new topic
Replies (30 - 33)
post Apr 23 2018, 14:06:33
Post #31

Правь статус, ####!111
**************
Group: Металариец
Posts: 3,082
Releases: 1
From: Рейх
On Forums: 12 years 6 months
Thanks: 828 time(s)
Ukraine


ЦИТАТА(Fess @ Jun 21 2015, 14:21:55) *
Альбом провальный, ужас. Хуже чем прошлый.

Как можно их сравнить, когда прошлый был почти шедевром в своем стиле. Даже если там нет никаких свежих идей, а вот этот очень спокойный почти без хитов.
Go to the top of the page
  Insert nick Quick quote
+Quote Post
post Feb 12 2019, 11:25:27
Post #32

Правь статус, ####!111
**************
Group: Металариец
Posts: 37,294
Releases: 547
On Forums: 9 years 8 months
Thanks: 28705 time(s)
Russian Federation


Ну, не только Рапсодия бомбанет в этом году новым полноформатом, но и сам Лука в дуэте с Фабио Леоне. Обещают новьё летом.

Turilli / Lione Rhapsody - Rebirth And Evolution




Thanks:
Go to the top of the page
  Insert nick Quick quote
+Quote Post
post Feb 12 2019, 12:15:48
Post #33

Котеги! Нравяцо котеги?
**************
Group: Металариец
Posts: 5,228
Releases: 0
From: Терра Инкогнита
On Forums: 8 years 8 months
Thanks: 1887 time(s)
Russian Federation


ЦИТАТА(vosmidesijatye @ 12th February 2019 - 13:25:27) *
Turilli / Lione Rhapsody - Rebirth And Evolution

нахер разбегались спрашивается
Go to the top of the page
  Insert nick Quick quote
+Quote Post
post Feb 12 2019, 12:19:04
Post #34
BAN
Banned till
Feb 20 2019, 13:32:53



QUOTE(vosmidesijatye @ Feb 12 2019, 15:25:27) *
Ну, не только Рапсодия бомбанет в этом году новым полноформатом, но и сам Лука в дуэте с Фабио Леоне. Обещают новьё летом.

Turilli / Lione Rhapsody - Rebirth And Evolution


Рапсоди бомбила пока там был Турили.
Леоне тоже давно не певец,
лучше бы Бриджит Фогель снова привлёк.
И вообще движение как на Dreamquest было очень перспективным
Жаль, не развил эту тему.

QUOTE(Aresson @ Feb 12 2019, 16:15:48) *
нахер разбегались спрашивается

Разбежались Люка и Страпон, Леоне просто певец.
Go to the top of the page
  Insert nick Quick quote
+Quote Post

2 Pages V  < 1 2
Reply to this topicStart new topic
1 User(s) are reading this topic (1 Guests and 0 Anonymous Users)
0 Members:

 



- Lo-Fi Version Support form
Copyrights and abuse reports form
Time is now: 20th February 2019 - 08:14:10