X   Site Message
(Message will auto close in 2 seconds)

Welcome Guest ( Log In | Register )

> Trauma - Cuentos No Resolutivos (1998), Death/Thrash Metal/Crossover
post Sep 23 2012, 17:35:19
Post #1

satanath@mail.ru
Group Icon
Group: Moderation team
Posts: 5,917
Releases: 644
From: Satan-Petersburg
On Forums: 8 years 3 months
Thanks: 14905 time(s)
Russian Federation




*Artist: Trauma
*Album: Cuentos No Resolutivos
*Year: 1998
*Genre: Death/Thrash Metal/Crossover
*Country: Spain
*Format: mp3@VBR384kbps
*Size: 45MB

Tracklist:
1. Pacifista Convencido 03:10
2. Destino Oscuro 02:55
3. Haz Algo Ya 02:46
4. El Funambulista de la Bullaga 02:12
5. Nada Humano 1 03:36
6. Nada Humano 2 03:49
7. Komplicado Kontarlo kon k's 02:03
8. Los Consejos del Padre O'Brien el Agnóstico (Fuma Grass) 03:23
9. Juez Verdugo 03:34
10. La Azada Killer de Manoliño o Muñeiro 03:13
11. Morí Vivo 04:18
12. Likantropilla Feroz 01:38
13. ¿Y tú qué Vendes? 03:35
******************************
Total playing time: 40:12

Extended info
Label: Dragon

Release date: September '98

Дезни мало, скорее это трешовый кроссовер с характерным испанским речитативом.



Input File: 04 El Funanbulista De La Bullaga.mp3
Channels : 2
Sample Rate : 44100
Precision : 16-bit
Duration : 00:02:12.21 = 5830241 samples = 9915.38 CDDA sectors
File Size : 2.53M
Bit Rate : 153k
Sample Encoding: MPEG audio (layer I, II or III)
Comments :
Title=El Funanbulista De La Bullaga
Artist=Trauma
Album=Cuentos No Resolutivos
Tracknumber=4
Year=1998
Genre=9

Register


This post has been edited by satanath: Sep 23 2012, 21:59:56


Go to the top of the page
  Insert nick Quick quote
+Quote Post
 
Start new topic
Replies (1 - 4)
post Sep 23 2012, 17:46:57
Post #2

satanath@mail.ru
Group Icon
Group: Moderation team
Posts: 5,917
Releases: 644
From: Satan-Petersburg
On Forums: 8 years 3 months
Thanks: 14905 time(s)
Russian Federation


блин, тупой инет долго грузил спектрограмму, но на выходе был вопросик "Input file"... (бывает иногда). позже добавлю!

ЦИТАТА(TheThrasher @ Sep 23 2012, 21:23:35) *
>320kbps 17.gif fear.gif

да, самый низкий трек тут в 300, a самый высокий - 468, поэтому график нужен обязательно.

уже добавил. извиняюсь за подобный косяк

This post has been edited by satanath: Sep 23 2012, 22:08:33


Thanks:
Go to the top of the page
  Insert nick Quick quote
+Quote Post
post Sep 23 2012, 18:23:35
Post #3

_ - = # Thrashogolic # = - _ ... а давайте поржём все вместе
**************
Group: Металариец
Posts: 21,081
Releases: 4444
From: 404
On Forums: 8 years 8 months
Thanks: 27396 time(s)
Ukraine


ЦИТАТА(satanath @ 23rd September 2012 - 19:35:19) *
*Формат: mp3@VBR384kbps
>320kbps 17.gif fear.gif


Thanks:
(1) satanath,
Go to the top of the page
  Insert nick Quick quote
+Quote Post
post Dec 15 2015, 21:42:20
Post #4

Четыре Литра
****
Group: Металариец
Posts: 345
Releases: 3
From: Posadas Misiones
On Forums: 5 years 5 months
Thanks: 264 time(s)
Argentina


PLEASE REUP!
Go to the top of the page
  Insert nick Quick quote
+Quote Post
post Feb 12 2019, 06:34:20
Post #5

Литр
*
Group: Подсевший
Posts: 97
Releases: 0
On Forums: 1 year 8 months
Thanks: 3 time(s)
Unknown


Agree! Pls reup!
Go to the top of the page
  Insert nick Quick quote
+Quote Post

Reply to this topicStart new topic
2 User(s) are reading this topic (2 Guests and 0 Anonymous Users)
0 Members:

 



- Lo-Fi Version Support form
Copyrights and abuse reports form
Time is now: 20th February 2019 - 09:09:50