X   Site Message
(Message will auto close in 2 seconds)

Welcome Guest ( Log In | Register )

> И неформату есть предел.

Рэп/хип-хоп/шансон/поп удаляются. Для них есть свои порталы.

 
Reply to this topicStart new topic
> Puppy - The Goat (2019), Occult Heavy Metal/Hard Rock
post Jan 27 2019, 07:42:41
Post #1

Аннигилятор пивА
Group Icon
Group: V.I.P
Posts: 52,305
Releases: 16538
From: Koenigsberg - TILZIT
On Forums: 12 years 8 months
Thanks: 358142 time(s)
Russian Federation




*Artist: Puppy
*Album: The Goat
*Year: 2019
*Genre: Occult Heavy Metal/Hard Rock
*Country: United Kingdom
*Format: mp3@CBR320kbps
*Size: 99MB

Tracklist:
01. Black Hole
02. Vengeance
03. Poor Me
04. Just Like You
05. And So I Burn…
06. Entombed
07. World Stands Still
08. Bathe In Blood
09. Nightwalker
10. I Feel An Evil
11. Handlebars
12. Demons
******************************
Total playing time: 44:01

Extended info








Technical info

Input File: 05 - And So I Burn.mp3
Channels : 2
Sample Rate : 44100
Precision : 16-bit
Duration : 00:03:27.82 = 9164774 samples = 15586.4 CDDA sectors
File Size : 8.31M
Bit Rate : 320k
Sample Encoding: MPEG audio (layer I, II or III)
Comments :
Title=And So I Burn
Artist=Puppy
Album=The Goat
Tracknumber=5/12
Year=2019



Register


Thanks:
(1) Rover,
Go to the top of the page
  Insert nick Quick quote
+Quote Post

Reply to this topicStart new topic
1 User(s) are reading this topic (1 Guests and 0 Anonymous Users)
0 Members:

 



- Lo-Fi Version Support form
Copyrights and abuse reports form
Time is now: 21st February 2019 - 01:03:48