X   Site Message
(Message will auto close in 2 seconds)

Welcome Guest ( Log In | Register )

> И неформату есть предел.

Рэп/хип-хоп/шансон/поп удаляются. Для них есть свои порталы.

 
Reply to this topicStart new topic
> Xentrifuge - Desensitized Parallels (2018), Aggrotech/Harsh Ebm
post Feb 3 2019, 10:08:31
Post #1

Два Литра
**
Group: Подсевший
Posts: 103
Releases: 17
From: Harlingen, Texas
On Forums: 2 years 6 months
Thanks: 473 time(s)
United States




*Artist: Xentrifuge
*Album: Desensitized Parallels
*Year: 2018
*Genre: Aggrotech/Harsh Ebm
*Country: United States
*Format: mp3@VBR319kbps
*Size: 62MB

Tracklist:
1 Irra
2 A Summoning
3 Machine Winter
4 Intravenous
5 Encrypted In Visions
6 Fated
7 Unknown Divine
8 N.M.E
9 Circles Of Dust
10 Desensitized Parallels
******************************
Total playing time: 43:24

Technical info

Input File: 02 - A Summons.mp3
Channels : 2
Sample Rate : 44100
Precision : 16-bit
Duration : 00:04:51.32 = 12847080 samples = 21848.8 CDDA sectors
File Size : 11.7M
Bit Rate : 322k
Sample Encoding: MPEG audio (layer I, II or III)
Comments :
Title=A Summons
Artist=Xentrifuge
Album=Desensitized Parallels
Tracknumber=2
Year=2018



Register


Thanks:
Go to the top of the page
  Insert nick Quick quote
+Quote Post

Reply to this topicStart new topic
2 User(s) are reading this topic (2 Guests and 0 Anonymous Users)
0 Members:

 



- Lo-Fi Version Support form
Copyrights and abuse reports form
Time is now: 21st February 2019 - 00:44:39