X   Site Message
(Message will auto close in 2 seconds)

Welcome Guest ( Log In | Register )

> И неформату есть предел.

Рэп/хип-хоп/шансон/поп удаляются. Для них есть свои порталы.

 
Reply to this topicStart new topic
> The Kinks - Celluloid Heroes - The Kinks' Greatest [Expanded 2001] [compilation] (1976), Rock (D5)
post Feb 5 2019, 07:45:40
Post #1

Два Литра
**
Group: Завсегдатай
Posts: 112
Releases: 10
On Forums: 3 weeks 2 days
Thanks: 176 time(s)
Canada




*Artist: The Kinks
*Album: Celluloid Heroes - The Kinks' Greatest [Expanded 2001] [compilation]
*Year: 1976
*Genre: Rock
*Country: United Kingdom
*Format: mp3@VBR240kbps
*Size: 130MB

Tracklist:
1. 20th Century Man 05:54
2. Complicated Life 04:01
3. Muswell Hillbilly 04:55
4. Alcohol (Recorded In Concert At Carnegie Hall, NYC) 05:16
5. Celluloid Heroes 06:20
6. Here Comes Yet Another Day 03:53
7. Sweet Lady Genevieve 03:27
8. One Of The Survivors 04:32
9. Sitting In The Midday Sun 03:407
10. He's Evil 04:26
11. Mirror Of Love 03:28
12. Artificial Man 05:30
13, Everybody's A Star (Starmaker) 03:00
14. (A) Face In The Crowd 02:20
15. You Can't Stop The Music 03:15
16. I'm In Disgrace 03:23
17. The Hard Way 02:37
18. No More Looking Back 04:31
******************************
Total playing time: 1:14:28

Extended info
CD rip
Velvel – VR2-79734, Konk – VR2-79734
CD, Compilation, Club Edition, Remastered

The original 1976 vinyl had completely different edits and mixes.
http://www.discogs.com/The-Kinks-Celluloid-Heroes-The-Kinks-Greatest/master/246706


Technical info

Input File: 17 - The Hard Way.mp3
Channels : 2
Sample Rate : 44100
Precision : 16-bit
Duration : 00:02:37.28 = 6936180 samples = 11796.2 CDDA sectors
File Size : 4.94M
Bit Rate : 251k
Sample Encoding: MPEG audio (layer I, II or III)
Comments :
Title=The Hard way
Artist=The Kinks
Album=The Kinks' Greatest: Celluloid Heroes [expanded]
Tracknumber=17/18
Year=2001
Genre=Rock
Discnumber=1/1



Register


Thanks:
(1) marilin,
Go to the top of the page
  Insert nick Quick quote
+Quote Post

Reply to this topicStart new topic
1 User(s) are reading this topic (1 Guests and 0 Anonymous Users)
0 Members:

 



- Lo-Fi Version Support form
Copyrights and abuse reports form
Time is now: 21st February 2019 - 01:20:39