X   Site Message
(Message will auto close in 2 seconds)

Welcome Guest ( Log In | Register )

> И неформату есть предел.

Рэп/хип-хоп/шансон/поп удаляются. Для них есть свои порталы.

 
Reply to this topicStart new topic
> Sweet - The Best Of Sweet [compilation] (1993), Glam Rock (D4)
post Feb 5 2019, 08:01:56
Post #1

Два Литра
**
Group: Завсегдатай
Posts: 112
Releases: 10
On Forums: 3 weeks 2 days
Thanks: 176 time(s)
Canada




*Artist: Sweet
*Album: The Best Of Sweet [compilation]
*Year: 1993
*Genre: Glam Rock
*Country: United Kingdom
*Format: mp3@VBR199kbps
*Size: 89MB

Tracklist:
1. Little Willy 03:15
2. Wig-Wam Bam 03:02
3. Blockbuster 03:14
4. The Ballroom Blitz 04:04
5. Teenage Rampage 03:35
6. The 6-Teens 04:05
7. Fox On The Run 03:26
8. Action 03:20
9 .The Lies In Your Eyes 03:47
10. Lost Angels 04:04
11. Fever Of Love 04:00
12. Stairway To The Stars 03:05
13. Love Is Like Oxygen [edited. this is the single version] 03:47
14. California Nights 03:44
15. Mother Earth 06:32
16. Sixties Man 04:08
******************************
Total playing time: 1:01:08

Extended info
scans included.


Technical info

Input File: Sweet - The Best of Sweet [Capitol 1993] - 01 - Little Willy.mp3
Channels : 2
Sample Rate : 44100
Precision : 16-bit
Duration : 00:03:15.58 = 8624990 samples = 14668.4 CDDA sectors
File Size : 5.56M
Bit Rate : 227k
Sample Encoding: MPEG audio (layer I, II or III)
Comments :
Title=Little Willy
Artist=Sweet
Album=The Best of Sweet [Capitol 199
Tracknumber=1
Year=1993
Genre=17



Register


Thanks:
(1) Skrilava,
Go to the top of the page
  Insert nick Quick quote
+Quote Post

Reply to this topicStart new topic
1 User(s) are reading this topic (1 Guests and 0 Anonymous Users)
0 Members:

 



- Lo-Fi Version Support form
Copyrights and abuse reports form
Time is now: 21st February 2019 - 00:29:09