X   Site Message
(Message will auto close in 2 seconds)

Welcome Guest ( Log In | Register )

> И неформату есть предел.

Рэп/хип-хоп/шансон/поп удаляются. Для них есть свои порталы.

> Lebowski - Galactica (2019), Progressive/Art-Rock/Fusion
post Jan 26 2019, 06:38:44
Post #1

Аннигилятор пивА
Group Icon
Group: V.I.P
Posts: 52,268
Releases: 16515
From: Koenigsberg - TILZIT
On Forums: 12 years 8 months
Thanks: 357792 time(s)
Russian Federation




*Artist: Lebowski
*Album: Galactica
*Year: 2019
*Genre: Progressive/Art-Rock/Fusion
*Country: Poland
*Format: mp3@CBR320kbps
*Size: 158MB

Tracklist:
01. Solitude Of Savant 08:22
02. Midnight Syndrome 08:21
03. Goodbye My Joy 05:44
04. White Elephant 07:14
05. The Doosan Way 10:49
06. Galactica 06:39
07. Slightly Inhuman 06:32
08. Mirage Avenue 06:37
09. The Last King 07:58
******************************
Total playing time: 1:08:16



Extended info
Второй студийный альбом

Marcin Grzegorczyk – Guitars, Bass Solo (4)
Marcin Łuczaj – Piano, Synths
Ryszard Łabul – Bass
Krzysztof Pakuła – Drums
With:
Marek Żak – Bass
Krzystof Ciesielski – Double Bass
Katarzyna Dziubak - Vocals
Maciej Marcinkowski - Clarinet
Marcus Stockhausen - Flugelhorn
Dariusz Kabacinski - Mandolin



Technical info

Input File: 06. Galactica.mp3
Channels : 2
Sample Rate : 44100
Precision : 16-bit
Duration : 00:00:00.40 = 17552 samples = 29.8503 CDDA sectors
File Size : 16.0M
Bit Rate : 321M
Sample Encoding: MPEG audio (layer I, II or III)
Comments :
Title=Galactica
Artist=Lebowski
Album=Galactica
Tracknumber=06/09
Year=2019-19-20
Genre=Instrumental Progressive Rock



Register


Go to the top of the page
  Insert nick Quick quote
+Quote Post
3 Pages V  < 1 2 3  
Start new topic
Replies (60 - 61)
post Feb 16 2019, 10:52:52
Post #61

Schuldinerist
**************
Group: Металариец
Posts: 10,055
Releases: 33
From:
On Forums: 11 years 10 months
Thanks: 6208 time(s)
Russian Federation


ЦИТАТА(White_eagle @ Feb 12 2019, 16:44:33) *
К сожалению, альбом просто приятный. Хороший, добротный, но не выше 8 из 10.
Скажем так, я слышу предпосылки к гениальному музону, симпатизирую музыкантам, искренне пытаюсь расслушать, но совершенно очевидно, что не дотянули.
И, да, думаю, что мне не хватило, собственно, прога.

Сейчас вот такой простой приятной музыки без претензий на что-либо почти не осталось. чтобы просто взять и послушать в удовольствие фоном.. и чтобы не надоело через 15 минут.. имею в виду новые альбомы
Go to the top of the page
  Insert nick Quick quote
+Quote Post
post Feb 16 2019, 10:57:01
Post #62

Правь статус, ####!111
**************
Group: Металариец
Posts: 37,291
Releases: 547
On Forums: 9 years 8 months
Thanks: 28695 time(s)
Russian Federation


ЦИТАТА(Язва @ Feb 16 2019, 13:52:52) *
Сейчас вот такой простой приятной музыки без претензий на что-либо почти не осталось. чтобы просто взять и послушать в удовольствие фоном.. и чтобы не надоело через 15 минут.. имею в виду новые альбомы


Есть и немало, но только не в метале, а в том же краутроке, тяжёлом психоделическом роке, даже зачастую инструментальные плиты. bye.gif
Go to the top of the page
  Insert nick Quick quote
+Quote Post

3 Pages V  < 1 2 3
Reply to this topicStart new topic
2 User(s) are reading this topic (2 Guests and 0 Anonymous Users)
0 Members:

 



- Lo-Fi Version Support form
Copyrights and abuse reports form
Time is now: 19th February 2019 - 00:35:55