X   Site Message
(Message will auto close in 2 seconds)

Welcome Guest ( Log In | Register )

> Releases Upload / Добавление релизов

Добавить релиз тут / Click here to add release
Рекомендованные обменники / Recommended file shares

> Memoria Vetus - The Legends - Last Night Of Atlantis [demo] (1996), Black Metal
post Feb 10 2019, 09:49:26
Post #1


Group Icon
Group: S-moderation team
Posts: 8,795
Releases: 1429
On Forums: 7 years 11 months
Thanks: 41863 time(s)
Croatia




*Artist: Memoria Vetus
*Album: The Legends - Last Night Of Atlantis [demo]
*Year: 1996
*Genre: Black Metal
*Country: Poland
*Format: mp3@CBR320kbps
*Size: 102MB

Tracklist:
1. Podróż do zamorskiej krainy 04:43
2. Atlantyckie Imperium 06:47
3. Ostatnia noc Atlantydy 05:20
4. Czarny syn Gai 07:05
5. Guardian of Mankind 07:33
6. Sąd ostateczny 06:02
7. Noc w zimowym lesie 04:48
******************************
Total playing time: 42:18

Extended info
+ scans.
Recommended!


Technical info

Input File: 02 - Atlantyckie Imperium.mp3
Channels : 2
Sample Rate : 44100
Precision : 16-bit
Duration : 00:06:47.03 = 17950199 samples = 30527.5 CDDA sectors
File Size : 16.3M
Bit Rate : 320k
Sample Encoding: MPEG audio (layer I, II or III)
Comments :
Title=Atlantyckie Imperium
Artist=Memoria Vetus
Album=The Legends - Last Night of Atlantis
Tracknumber=2
Year=1996
Genre=Polish Black Metal



Register


Go to the top of the page
  Insert nick Quick quote
+Quote Post
 
Start new topic
Replies (1 - 4)
post Feb 10 2019, 11:08:22
Post #2


***********
Group: Металариец
Posts: 1,812
Releases: 14
From: Казань
On Forums: 9 years 5 months
Thanks: 2304 time(s)
Russian Federation


Культовая тема, несомненно!
Сейчас на такие работы неспособны. Начинка не та. Но не будем о них


Go to the top of the page
  Insert nick Quick quote
+Quote Post
post Feb 10 2019, 11:40:29
Post #3
BAN
Banned till
Mar 15 2019, 18:15:28



Причащайтесь.



Go to the top of the page
  Insert nick Quick quote
+Quote Post
post Feb 11 2019, 07:22:22
Post #4

Правь статус, ####!111
**************
Group: Металариец
Posts: 2,451
Releases: 11
From: Canada
On Forums: 11 years 8 months
Thanks: 1572 time(s)
Canada




Thanks:
(1) Witchlord,
Go to the top of the page
  Insert nick Quick quote
+Quote Post
post Feb 14 2019, 19:30:08
Post #5

Литр
*
Group: Подсевший
Posts: 52
Releases: 0
From: Украина
On Forums: 5 years 9 months
Thanks: 9 time(s)
Ukraine


Зашибись, отличное демо!


Thanks:
(1) sethurius,
Go to the top of the page
  Insert nick Quick quote
+Quote Post

Reply to this topicStart new topic
1 User(s) are reading this topic (1 Guests and 0 Anonymous Users)
0 Members:

 



- Lo-Fi Version Support form
Copyrights and abuse reports form
Time is now: 21st February 2019 - 00:29:02