X   Site Message
(Message will auto close in 2 seconds)

Welcome Guest ( Log In | Register )

> Releases Upload / Добавление релизов

Добавить релиз тут / Click here to add release
Рекомендованные обменники / Recommended file shares

 
Reply to this topicStart new topic
> Zivatar - When Leaves Fall And Cold Winds Come (2018), Doom/Death Metal
post Feb 10 2019, 16:52:05
Post #1

Три Литра
***
Group: Завсегдатай
Posts: 254
Releases: 152
On Forums: 9 years 11 months
Thanks: 1432 time(s)
Russian Federation




*Artist: Zivatar
*Album: When Leaves Fall And Cold Winds Come
*Year: 2018
*Genre: Doom/Death Metal
*Country: Hungary
*Format: mp3@CBR320kbps
*Size: 96MB

Tracklist:
01. A Heart Whose Love 08:52
02. Like The Sun From A Wintry Sky 11:03
03. Her Hair Was Red 02:13
04. While She Lies Sleeping... And The Moonbeams Kiss The Sea 09:08
05. As A White Candle 04:03
06. My Last Sleep 06:25
******************************
Total playing time: 41:44



Technical info

Input File: 01 - A Heart Whose Love.mp3
Channels : 2
Sample Rate : 44100
Precision : 16-bit
Duration : 00:08:52.09 = 23465345 samples = 39907 CDDA sectors
File Size : 21.4M
Bit Rate : 322k
Sample Encoding: MPEG audio (layer I, II or III)
Comments :
Title=A Heart Whose Love
Artist=ZIVATAR
Album=When Leaves Fall And Cold Winds Come
Tracknumber=1
Year=2018



Register


Go to the top of the page
  Insert nick Quick quote
+Quote Post

Reply to this topicStart new topic
1 User(s) are reading this topic (1 Guests and 0 Anonymous Users)
0 Members:

 



- Lo-Fi Version Support form
Copyrights and abuse reports form
Time is now: 18th February 2019 - 23:28:07