X   Site Message
(Message will auto close in 2 seconds)

Welcome Guest ( Log In | Register )

> Releases Upload / Добавление релизов

Добавить релиз тут / Click here to add release
Рекомендованные обменники / Recommended file shares

> Hexengrab - Schrei Der Sirenen [demo] (2018), Black Metal
post Feb 10 2019, 17:19:37
Post #1

Мегаманьяк
***********
Group: Металариец
Posts: 1,511
Releases: 1179
From: Prešov
On Forums: 4 years 10 months
Thanks: 28118 time(s)
Slovakia




*Artist: Hexengrab
*Album: Schrei Der Sirenen [demo]
*Year: 2018
*Genre: Black Metal
*Country: Germany
*Format: mp3@CBR320kbps
*Size: 57MB

Tracklist:
1. Einmarsch 01:40
2. Luftkrieg 05:16
3. Flammenwerfer 05:23
4. Trommelfeuer 07:04
5. Schrei der Sirenen 04:58
******************************
Total playing time: 24:21



Extended info
Narbentage Produktionen - NT-CD 3


Technical info

Input File: 02. Luftkrieg.mp3
Channels : 2
Sample Rate : 44100
Precision : 16-bit
Duration : 00:05:18.90 = 14063358 samples = 23917.3 CDDA sectors
File Size : 12.8M
Bit Rate : 321k
Sample Encoding: MPEG audio (layer I, II or III)
Comments :
Title=Luftkrieg
Artist=Hexengrab
Album=Schrei der Sirenen
Tracknumber=02/05
Year=2018
Genre=Black Metal
Discnumber=1/1



Register


Go to the top of the page
  Insert nick Quick quote
+Quote Post
 
Start new topic
Replies (1 - 4)
post Feb 10 2019, 17:23:35
Post #2

the faceless one
Group Icon
Group: S-moderation team
Posts: 8,890
Releases: 1745
On Forums: 10 years 6 months
Thanks: 102988 time(s)
Russian Federation


Register


Go to the top of the page
  Insert nick Quick quote
+Quote Post
post Feb 10 2019, 18:19:24
Post #3
BAN
Banned till
Mar 15 2019, 18:15:28



Давно я такого стаффа не слышал.
Без диссонансов, без ритуальщины, без экспериментов, без задpoтской техники, без заездов в другие стили и без каких-либо изысков вообще.
Атмосферный монотонный ураган злобы.

Похоже на Mysticum без грибов и электроники.


Go to the top of the page
  Insert nick Quick quote
+Quote Post
post Feb 12 2019, 14:17:05
Post #4

Правь статус, ####!111
**************
Group: Металариец
Posts: 2,113
Releases: 0
From: Dnipro
On Forums: 10 years 7 months
Thanks: 537 time(s)
Ukraine


Стандартная хромающая на обе ноги в плане реализации андеграундная немецкая хреновина.
Go to the top of the page
  Insert nick Quick quote
+Quote Post
post Feb 12 2019, 17:05:10
Post #5

De Mysteriis Dom Sathanas
**************
Group: Металариец
Posts: 3,402
Releases: 63
From: Москва
On Forums: 10 years 7 months
Thanks: 2914 time(s)
Russian Federation


ЦИТАТА(isvili @ Feb 12 2019, 16:17:05) *
Стандартная хромающая на обе ноги в плане реализации андеграундная немецкая хреновина.

Тоже так себе...очередная ван-мэн банда с электронными ударными и невыразительным однообразным саундом
Go to the top of the page
  Insert nick Quick quote
+Quote Post

Reply to this topicStart new topic
1 User(s) are reading this topic (1 Guests and 0 Anonymous Users)
0 Members:

 



- Lo-Fi Version Support form
Copyrights and abuse reports form
Time is now: 18th February 2019 - 23:28:19